<?xml version="1.0" standalone="no"?>
<!DOCTYPE svg PUBLIC "-//W3C//DTD SVG 1.1//EN" "http://www.w3.org/Graphics/SVG/1.1/DTD/svg11.dtd" >
<svg xmlns="http://www.w3.org/2000/svg">
<metadata>
<json>
<![CDATA[
{
	"fontFamily": "wpcaptcha-iconset",
	"description": "Font generated by IcoMoon.",
	"majorVersion": 1,
	"minorVersion": 1.2,
	"version": "Version 1.1",
	"fontId": "wpcaptcha-iconset",
	"psName": "wpcaptcha-iconset",
	"subFamily": "Regular",
	"fullName": "wpcaptcha-iconset"
}
]]>
</json>
</metadata>
<defs>
<font id="wpcaptcha-iconset" horiz-adv-x="1024">
<font-face units-per-em="1024" ascent="960" descent="-64" />
<missing-glyph horiz-adv-x="1024" />
<glyph unicode="&#x20;" horiz-adv-x="512" d="" />
<glyph unicode="&#xe900;" glyph-name="404" data-tags="404" d="M512 917.333c49.877 0 97.542-3.233 141.275-9.456v0l21.531-3.359c130.653-22.236 221.194-72.501 221.194-143.63v0-625.778c0-91.561-143.924-147.229-334.413-155.398l-24.563-0.784c-8.267-0.175-16.611-0.263-25.024-0.263s-16.757 0.088-25.024 0.263l-24.563 0.784c-186.436 7.995-328.267 61.49-334.218 149.603l-0.195 5.795v625.778l0.264 6.607c5.434 67.636 94.36 115.481 220.931 137.023v0l21.531 3.359c43.733 6.222 91.398 9.456 141.275 9.456zM561.587 292.602l-24.563-0.784c-8.267-0.175-16.611-0.263-25.024-0.263s-16.757 0.088-25.024 0.263l-24.563 0.784c-105.805 4.537-197.244 23.729-257.634 55.586l0.021-213.076c0-13.698 23.666-29.634 63.812-43.535l13.982-4.552 15.144-4.366 16.246-4.145 17.29-3.889c11.861-2.499 24.378-4.804 37.473-6.868l20.065-2.909 20.871-2.512c3.542-0.384 7.116-0.749 10.72-1.096l21.97-1.85c3.718-0.269 7.464-0.518 11.236-0.745l22.936-1.109c11.616-0.423 23.445-0.645 35.455-0.645s23.839 0.221 35.455 0.645l22.936 1.109c3.772 0.228 7.518 0.476 11.236 0.745l21.97 1.85c3.604 0.347 7.177 0.712 10.72 1.096l20.871 2.512 20.065 2.909c13.094 2.064 25.611 4.369 37.473 6.868l17.29 3.889 16.246 4.145 15.144 4.366 13.982 4.552c37.915 13.129 61.131 28.073 63.594 41.232l0.218 2.303 0.064 213.099c-60.389-31.87-151.847-51.070-257.677-55.608zM819.207 662.031c-37.604-19.904-87.152-35.029-144.401-44.772v0l-21.531-3.359c-43.733-6.222-91.398-9.456-141.275-9.456s-97.542 3.233-141.275 9.456v0l-21.531 3.359c-57.227 9.74-106.759 24.857-144.358 44.749l-0.037-214.008c0-13.698 23.666-29.634 63.812-43.535l13.982-4.552 15.144-4.366 16.246-4.145 17.29-3.889c11.861-2.499 24.378-4.804 37.473-6.868l20.065-2.909 20.871-2.512 10.72-1.096 21.97-1.85c3.718-0.269 7.464-0.518 11.236-0.745l22.936-1.109c11.616-0.423 23.445-0.645 35.455-0.645s23.839 0.221 35.455 0.645l22.936 1.109c3.772 0.228 7.518 0.476 11.236 0.745l21.97 1.85 10.72 1.096 20.871 2.512 20.065 2.909c13.094 2.064 25.611 4.369 37.473 6.868l17.29 3.889 16.246 4.145 15.144 4.366 13.982 4.552c40.146 13.901 63.812 29.838 63.812 43.535zM512 839.111l-11.79-0.075c-19.558-0.248-38.646-1.108-57.099-2.483v0l-21.828-1.89-21.154-2.346c-17.331-2.135-33.893-4.707-49.524-7.619v0l-18.298-3.651-17.339-3.939-16.316-4.191c-57.875-15.781-93.852-35.882-93.852-52.029v0.242l0.005-0.579c0.468-15.189 32.47-33.802 84.406-49.023l9.441-2.669 16.316-4.191 17.339-3.939 18.298-3.651c15.63-2.911 32.193-5.483 49.524-7.619v0l21.154-2.346 21.828-1.89c22.143-1.649 45.202-2.558 68.889-2.558s46.746 0.908 68.889 2.558v0l21.828 1.89 21.154 2.346c17.331 2.135 33.893 4.707 49.524 7.619v0l18.298 3.651 17.339 3.939 16.316 4.191c57.875 15.781 93.852 35.882 93.852 52.029s-35.976 36.248-93.852 52.029v0l-16.316 4.191-17.339 3.939-18.298 3.651c-15.63 2.911-32.193 5.483-49.524 7.619v0l-21.154 2.346-21.828 1.89c-22.143 1.649-45.202 2.558-68.889 2.558v0z" />
<glyph unicode="&#xe901;" glyph-name="alert-circle" data-tags="alert-circle" d="M469.333 320h85.333v-85.333h-85.333v85.333zM469.333 661.333h85.333v-256h-85.333v256zM511.573 874.667c-235.52 0-426.24-191.147-426.24-426.667s190.72-426.667 426.24-426.667c235.947 0 427.093 191.147 427.093 426.667s-191.147 426.667-427.093 426.667zM512 106.667c-188.587 0-341.333 152.747-341.333 341.333s152.747 341.333 341.333 341.333c188.587 0 341.333-152.747 341.333-341.333s-152.747-341.333-341.333-341.333z" />
<glyph unicode="&#xe902;" glyph-name="alert-triangle" data-tags="alert-triangle" d="M512.053 874.667l-469.387-810.611h938.507zM512.053 704.053l321.229-554.562h-642.722zM469.335 533.44v-170.611h85.171v170.611zM469.335 277.389v-85.175h85.171v85.175z" />
<glyph unicode="&#xe903;" glyph-name="arrow-down" data-tags="arrow-down" d="M469.333 789.333h85.333v-512.444l234.889 234.889 60.339-60.339-337.894-337.894-337.895 337.894 60.34 60.339 234.889-234.889z" />
<glyph unicode="&#xe904;" glyph-name="arrow-left" data-tags="arrow-left" d="M846.457 494.105v-85.333h-512.445l234.889-234.889-60.339-60.339-337.896 337.894 337.896 337.895 60.339-60.34-234.889-234.889z" />
<glyph unicode="&#xe905;" glyph-name="arrow-right" data-tags="arrow-right" d="M170.667 494.105v-85.333h512.444l-234.889-234.889 60.339-60.339 337.894 337.894-337.894 337.895-60.339-60.34 234.889-234.889z" />
<glyph unicode="&#xe906;" glyph-name="arrow-up" data-tags="arrow-up" d="M551.229 113.543h-85.333v512.445l-234.889-234.889-60.34 60.339 337.895 337.896 337.894-337.896-60.339-60.339-234.889 234.889z" />
<glyph unicode="&#xe907;" glyph-name="check" data-tags="check" d="M501.712 874.569l5.351-0.785 333.913-74.203c16.975-3.772 29.053-18.829 29.053-36.218v0-333.913c0-127.433-69.244-231.299-182.335-312.976-38.606-27.882-79.763-51.204-120.918-70.258v0l-15.734-7.085c-2.482-1.085-4.893-2.123-7.227-3.114v0l-13.068-5.378c-2.017-0.802-3.951-1.558-5.799-2.267v0l-10.021-3.699-4.18-1.435c-7.616-2.539-15.849-2.539-23.465 0-1.298 0.433-2.692 0.911-4.18 1.435v0l-15.82 5.967c-2.017 0.802-4.117 1.652-6.296 2.548v0l-13.999 5.944-15.734 7.085c-41.155 19.053-82.312 42.376-120.918 70.258-113.092 81.677-182.335 185.543-182.335 312.976v0 333.913c0 17.389 12.078 32.446 29.053 36.218v0l333.913 74.203c5.301 1.178 10.796 1.178 16.097 0zM499.014 799.573l-296.812-65.966v-304.158c0-96.249 52.047-177.756 141.487-245.366v0l10.091-7.455c34.438-24.872 71.541-45.897 108.647-63.076 12.968-6.004 24.974-11.083 35.686-15.249v0l0.901-0.318 9.172 3.614c5.669 2.312 11.641 4.852 17.874 7.624v0l9.541 4.33c37.106 17.179 74.21 38.204 108.647 63.076 95.604 69.047 151.578 153.008 151.578 252.821v0 304.158l-296.812 65.966zM708.667 643.126c14.361-12.309 17.001-33.214 6.833-48.593l-2.809-3.722-222.609-259.71c-13.060-15.237-35.599-17.155-50.987-5.116l-3.417 3.026-111.304 111.304c-14.489 14.489-14.489 37.98 0 52.469 13.374 13.374 34.42 14.403 48.974 3.086l3.495-3.086 82.955-82.926 196.554 229.242c13.335 15.558 36.757 17.359 52.315 4.024z" />
<glyph unicode="&#xe908;" glyph-name="checkmark" data-tags="checkmark" d="M874.667 686.327l-512-512-234.667 234.667 60.34 60.339 174.327-174.327 451.661 451.661z" />
<glyph unicode="&#xe909;" glyph-name="close" data-tags="close" d="M810.667 686.507l-60.16 60.16-238.507-238.507-238.507 238.507-60.16-60.16 238.507-238.507-238.507-238.507 60.16-60.16 238.507 238.507 238.507-238.507 60.16 60.16-238.507 238.507z" />
<glyph unicode="&#xe90a;" glyph-name="crop" data-tags="crop" d="M213.333 746.667h213.333v-85.333h-128v-128h-85.333v213.333zM597.333 746.666h213.333v-213.333h-85.333v128h-128v85.333zM725.333 362.667h85.333v-213.333h-213.333v85.333h128v128zM426.667 234.667v-85.333h-213.333v213.333h85.333v-128h128z" />
<glyph unicode="&#xe90b;" glyph-name="edit" data-tags="edit" d="M864.464 95.536c20.491 0 37.101-16.611 37.101-37.101 0-19.027-14.323-34.709-32.775-36.852l-4.327-0.25h-742.029c-20.491 0-37.101 16.611-37.101 37.101 0 19.027 14.323 34.709 32.775 36.852l4.327 0.25h742.029zM615.62 863.8c14.489 14.489 37.98 14.489 52.469 0v0l148.406-148.406c14.489-14.489 14.489-37.98 0-52.469v0l-445.217-445.217c-5.179-5.179-11.776-8.71-18.958-10.146v0l-185.507-37.101c-25.961-5.192-48.849 17.696-43.657 43.657v0l37.101 185.507c1.437 7.183 4.967 13.779 10.146 18.958v0zM641.855 785.067l-411.047-411.010-24.005-119.912 119.912 23.968 411.047 411.047-95.907 95.907z" />
<glyph unicode="&#xe90c;" glyph-name="expand" data-tags="expand" d="M426.675 64.009v85.333h-153.173l192 192-60.169 60.16-192-192v153.165h-85.333v-298.667l298.675 0.009zM618.667 494.49l192 192v-153.165h85.333v298.675h-298.667v-85.333h153.173l-192-192 60.16-60.177z" />
<glyph unicode="&#xe90d;" glyph-name="export" data-tags="export" d="M981.333 448l-170.667 170.665v-127.999h-384v-85.333h384v-128zM42.667 192v512c0 47.36 38.4 85.334 85.333 85.334h512c46.933 0 85.333-37.973 85.333-85.333v-128h-85.333v128h-512v-512h512v128h85.333v-128c0-46.933-38.4-85.333-85.333-85.333h-512c-46.933 0-85.333 37.974-85.333 85.333z" />
<glyph unicode="&#xe90e;" glyph-name="external-link" data-tags="external-link" d="M597.333 832v-85.333h153.003l-419.371-419.326 60.331-60.373 419.371 419.369v-153.003h85.333v298.667zM810.667 149.335h-597.333v597.331h298.667v85.333h-298.667c-47.147 0-85.333-38.229-85.333-85.333v-597.331c0-47.108 38.187-85.333 85.333-85.333h597.333c47.104 0 85.333 38.225 85.333 85.333v298.667h-85.333v-298.667z" />
<glyph unicode="&#xe90f;" glyph-name="graph" data-tags="graph" d="M81.778 832c20.058 0 36.589-14.824 38.848-33.922l0.263-4.478v-652.8h821.333c20.058 0 36.589-14.824 38.848-33.922l0.263-4.478c0-19.693-15.098-35.923-34.55-38.142l-4.561-0.258h-860.444c-20.058 0-36.589 14.824-38.848 33.922l-0.263 4.478v691.2c0 21.208 17.511 38.4 39.111 38.4zM942.222 832c21.6 0 39.111-17.192 39.111-38.4s-17.511-38.4-39.111-38.4c-129.303 0-194.668-30.495-252.972-121.64l-9.662-15.758c-3.205-5.443-6.399-11.079-9.59-16.912l-9.576-18.097-9.621-19.313-9.724-20.56-9.886-21.839-10.299-23.386-10.489-23.092-10.44-21.956-10.44-20.838c-1.743-3.381-3.488-6.716-5.235-10.006l-10.531-19.198c-75.848-133.727-161.008-185.007-335.535-185.007-21.6 0-39.111 17.192-39.111 38.4s17.511 38.4 39.111 38.4c129.303 0 194.668 30.495 252.972 121.64l9.662 15.758c3.205 5.443 6.399 11.079 9.59 16.912l9.576 18.097 9.621 19.313 9.724 20.56 9.886 21.839 10.299 23.386 10.489 23.092 10.44 21.956 10.44 20.838c1.743 3.381 3.488 6.716 5.235 10.006l10.531 19.198c75.848 133.727 161.008 185.007 335.535 185.007z" />
<glyph unicode="&#xe910;" glyph-name="heart" data-tags="heart" d="M516.48 168.364l-4.48-4.053-4.48 4.053c-202.838 184.107-336.854 305.702-336.854 428.969 0 85.12 64.213 149.333 149.333 149.333 65.621 0 129.664-42.325 152.192-100.737h79.616c22.528 58.412 86.571 100.737 152.192 100.737 85.12 0 149.333-64.213 149.333-149.333 0-123.267-134.016-244.863-336.853-428.969zM704 832c-74.282 0-145.45-34.432-192-89.003-46.549 54.57-117.717 89.003-192 89.003-131.585 0-234.667-103.084-234.667-234.667 0-161.070 145.152-292.777 364.843-492.163l61.824-56.145 61.824 56.145c219.691 199.386 364.842 331.093 364.842 492.163 0 131.583-103.082 234.667-234.667 234.667z" />
<glyph unicode="&#xe911;" glyph-name="import" data-tags="import" d="M640 448l-170.667 170.667v-128h-341.333v-85.333h341.333v-128zM896 192v512c0 47.36-38.4 85.334-85.333 85.334h-512c-46.933 0-85.333-37.973-85.333-85.333v-128h85.333v128h512v-512h-512v128h-85.333v-128c0-46.933 38.4-85.333 85.333-85.333h512c46.933 0 85.333 37.974 85.333 85.333z" />
<glyph unicode="&#xe912;" glyph-name="info" data-tags="info" d="M469.334 576h85.333v85.333h-85.333zM512 106.669c-188.203 0-341.333 153.126-341.333 341.333 0 188.201 153.13 341.331 341.333 341.331s341.333-153.13 341.333-341.331c0-188.207-153.13-341.333-341.333-341.333zM512 874.667c-235.648 0-426.667-191.018-426.667-426.665 0-235.652 191.018-426.667 426.667-426.667s426.667 191.014 426.667 426.667c0 235.646-191.018 426.665-426.667 426.665zM469.334 234.669h85.333v256h-85.333v-256z" />
<glyph unicode="&#xe913;" glyph-name="log" data-tags="log" d="M642.436 874.665c2.939 0.001 6.082-0.416 9.072-1.198 0.154-0.049 0.312-0.092 0.47-0.136 1.309-0.352 2.58-0.781 3.816-1.274 0.345-0.147 0.72-0.304 1.092-0.466 1.077-0.462 2.095-0.967 3.085-1.516 0.287-0.166 0.59-0.339 0.891-0.517 1.051-0.617 2.056-1.283 3.023-1.995 1.373-1.012 2.671-2.114 3.891-3.31l-3.027 2.654c0.889-0.696 1.743-1.432 2.561-2.205l0.466-0.449 217.6-213.333c0.166-0.163 0.33-0.327 0.492-0.492 0.769-0.785 1.478-1.575 2.149-2.395 0.328-0.403 0.641-0.803 0.945-1.209 0.526-0.696 1.037-1.433 1.521-2.189 0.368-0.585 0.718-1.172 1.051-1.767 0.352-0.615 0.678-1.24 0.985-1.876 0.33-0.702 0.648-1.42 0.941-2.148 1.147-2.823 1.925-5.81 2.293-8.919l0.244-4.147v-568.889c0-19.637-16.237-35.556-36.267-35.556v0h-652.8c-20.030 0-36.267 15.919-36.267 35.556v0 782.222c0 19.637 16.237 35.556 36.267 35.556v0l435.503-0.001zM605.867 803.584l-362.667-0.028v-711.111h580.267v497.806l-181.333-0.028c-18.599 0-33.928 13.726-36.023 31.409l-0.244 4.147v177.806zM714.667 305.778c20.030 0 36.267-15.919 36.267-35.556 0-18.234-14-33.262-32.037-35.316l-4.229-0.239h-362.667c-20.030 0-36.267 15.919-36.267 35.556 0 18.234 14 33.262 32.037 35.316l4.229 0.239h362.667zM714.667 483.556c20.030 0 36.267-15.919 36.267-35.556 0-18.234-14-33.262-32.037-35.316l-4.229-0.239h-362.667c-20.030 0-36.267 15.919-36.267 35.556 0 18.234 14 33.262 32.037 35.316l4.229 0.239h362.667zM497.067 661.333c20.030 0 36.267-15.919 36.267-35.556 0-18.234-14-33.262-32.037-35.316l-4.229-0.239h-145.067c-20.030 0-36.267 15.919-36.267 35.556 0 18.234 14 33.262 32.037 35.316l4.229 0.239h145.067z" />
<glyph unicode="&#xe914;" glyph-name="menu" data-tags="menu" d="M128 704h768v-85.333h-768v85.333zM128 490.667h768v-85.333h-768v85.333zM128 277.333h768v-85.333h-768v85.333z" />
<glyph unicode="&#xe915;" glyph-name="minus" data-tags="minus" d="M810.665 405.333h-597.332l0.022 85.244 597.31 0.090z" />
<glyph unicode="&#xe916;" glyph-name="more-horizontal" data-tags="more-horizontal" d="M682.667 448c0 47.13 38.204 85.333 85.333 85.333s85.333-38.204 85.333-85.333c0-47.13-38.204-85.333-85.333-85.333s-85.333 38.204-85.333 85.333zM426.667 448c0 47.13 38.204 85.333 85.333 85.333s85.333-38.204 85.333-85.333c0-47.13-38.204-85.333-85.333-85.333s-85.333 38.204-85.333 85.333zM170.667 448c0 47.13 38.205 85.333 85.333 85.333s85.333-38.204 85.333-85.333c0-47.13-38.205-85.333-85.333-85.333s-85.333 38.204-85.333 85.333z" />
<glyph unicode="&#xe917;" glyph-name="more-vertical" data-tags="more-vertical" d="M512 277.333c47.13 0 85.333-38.204 85.333-85.333s-38.204-85.333-85.333-85.333c-47.13 0-85.333 38.204-85.333 85.333s38.204 85.333 85.333 85.333zM512 533.333c47.13 0 85.333-38.204 85.333-85.333s-38.204-85.333-85.333-85.333c-47.13 0-85.333 38.204-85.333 85.333s38.204 85.333 85.333 85.333zM512 789.333c47.13 0 85.333-38.205 85.333-85.333s-38.204-85.333-85.333-85.333c-47.13 0-85.333 38.205-85.333 85.333s38.204 85.333 85.333 85.333z" />
<glyph unicode="&#xe918;" glyph-name="order" data-tags="order" d="M306.603 675.324l53.635-53.635 96.275 96.275v-156.026l75.631 0.005v156.026l96.27-96.27 53.635 53.635-187.724 187.724-187.724-187.734zM456.503 369.408v-156.026l-96.27 96.27-53.635-53.635 187.729-187.729 187.724 187.724-53.635 53.635-96.275-96.275v156.026l-75.637 0.011z" />
<glyph unicode="&#xe919;" glyph-name="pie" data-tags="pie" d="M426.667 917.333c305.164 0 554.667-249.503 554.667-554.667 0-112.403-35.055-223.614-97.054-314.227-13.323-19.473-39.922-24.435-59.37-11.076v0l-108.052 74.21c-70.984-82.472-178.083-132.907-290.191-132.907-211.297 0-384 172.703-384 384 0 196.89 149.953 360.268 341.357 381.634l-0.024 130.366c0 23.564 19.103 42.667 42.667 42.667zM128 362.667c0-164.169 134.497-298.667 298.667-298.667 83.822 0 164.433 36.579 219.328 96.285l-243.485 167.212c-11.587 7.958-18.51 21.113-18.51 35.169v0l0.023 295.604c-144.189-20.876-256.023-145.904-256.023-295.604zM469.333 830.037v-444.885l254.532-174.763c2.778-1.094 5.484-2.498 8.069-4.222 2.915-1.943 5.514-4.183 7.783-6.653l96.55-66.395 3.164 5.609c33.78 62.956 53.603 134.593 56.262 207.175v0l0.308 16.763c0 241.653-185.318 442.313-420.791 466.82v0l-5.876 0.551z" />
<glyph unicode="&#xe91a;" glyph-name="play-circle" data-tags="play-circle" d="M512 106.666c-188.203 0-341.333 153.131-341.333 341.333s153.13 341.333 341.333 341.333c188.202 0 341.333-153.13 341.333-341.333s-153.131-341.333-341.333-341.333zM512 874.666c-235.648 0-426.667-191.018-426.667-426.667s191.018-426.667 426.667-426.667c235.648 0 426.667 191.019 426.667 426.667s-191.019 426.667-426.667 426.667zM426.667 256l256 192-256 192v-384z" />
<glyph unicode="&#xe91b;" glyph-name="plus" data-tags="plus" d="M810.668 405.335h-256v-256h-85.333v256h-256.002v85.333h256.002v255.998h85.333v-255.998h256z" />
<glyph unicode="&#xe91c;" glyph-name="question-circle" data-tags="question-circle" d="M469.333 192h85.333v85.333h-85.333v-85.333zM512 874.667c-235.52 0-426.667-191.147-426.667-426.667s191.147-426.667 426.667-426.667c235.52 0 426.667 191.147 426.667 426.667s-191.147 426.667-426.667 426.667zM512 106.667c-188.16 0-341.333 153.173-341.333 341.333 0 188.167 153.174 341.333 341.333 341.333 188.169 0 341.333-153.167 341.333-341.333 0-188.16-153.165-341.333-341.333-341.333zM512 704c-94.293 0-170.667-76.373-170.667-170.667h85.333c0 46.933 38.4 85.333 85.333 85.333s85.333-38.4 85.333-85.333c0-85.333-128-74.667-128-213.333h85.333c0 96 128 106.667 128 213.333 0 94.293-76.373 170.667-170.667 170.667z" />
<glyph unicode="&#xe91d;" glyph-name="redirect" data-tags="redirect" d="M809.6 636.779l-54.676-54.676 98.034-98.034-537.385 0.028-0.027-77.34h537.412l-98.035-98.035 54.676-54.676 191.368 191.368zM510.928 69.964l-375.448 375.448 375.447 375.447 187.724-187.724 53.636 53.636-187.724 187.724c-29.634 29.634-77.664 29.607-107.271 0l-375.447-375.447c-29.609-29.609-29.634-77.637 0-107.271l375.448-375.448c29.607-29.607 77.661-29.609 107.271 0l187.724 187.724-53.635 53.635-187.724-187.724z" />
<glyph unicode="&#xe91e;" glyph-name="search" data-tags="search" d="M405.333 832c153.169 0 277.333-124.166 277.333-277.333 0-68.902-25.131-131.938-66.722-180.442l11.558-11.558h33.83l213.333-213.333-64-64-213.333 213.333v33.83l-11.558 11.558c-48.503-41.591-111.539-66.722-180.442-66.722-153.167 0-277.333 124.164-277.333 277.333 0 153.167 124.166 277.333 277.333 277.333zM405.333 746.666c-106.039 0-192-85.961-192-192s85.961-192 192-192c106.039 0 192 85.961 192 192s-85.961 192-192 192z" />
<glyph unicode="&#xe91f;" glyph-name="settings" data-tags="settings" d="M316.444 291.556c86.402 0 156.444-70.043 156.444-156.444s-70.043-156.444-156.444-156.444c-72.895 0-134.145 49.855-151.514 117.328l-83.152 0.005c-21.6 0-39.111 17.511-39.111 39.111 0 20.058 15.098 36.589 34.55 38.848l4.561 0.263 83.154 0.012c17.371 67.47 78.62 117.321 151.513 117.321zM316.444 213.333c-43.201 0-78.222-35.021-78.222-78.222s35.021-78.222 78.222-78.222c43.201 0 78.222 35.021 78.222 78.222s-35.021 78.222-78.222 78.222zM942.222 174.222c21.6 0 39.111-17.511 39.111-39.111 0-20.058-15.098-36.589-34.55-38.848l-4.561-0.263h-352c-21.6 0-39.111 17.511-39.111 39.111 0 20.058 15.098 36.589 34.55 38.848l4.561 0.263h352zM629.333 604.444c86.402 0 156.444-70.043 156.444-156.444s-70.043-156.444-156.444-156.444c-72.895 0-134.145 49.855-151.514 117.328l-396.041 0.005c-21.6 0-39.111 17.511-39.111 39.111 0 20.058 15.098 36.589 34.55 38.848l4.561 0.263 396.041 0.005c17.369 67.473 78.619 117.328 151.514 117.328zM629.333 526.222c-43.201 0-78.222-35.021-78.222-78.222s35.021-78.222 78.222-78.222c43.201 0 78.222 35.021 78.222 78.222s-35.021 78.222-78.222 78.222zM942.222 487.111c21.6 0 39.111-17.511 39.111-39.111 0-20.058-15.098-36.589-34.55-38.848l-4.561-0.263h-39.111c-21.6 0-39.111 17.511-39.111 39.111 0 20.058 15.098 36.589 34.55 38.848l4.561 0.263h39.111zM316.444 917.333c86.402 0 156.444-70.043 156.444-156.444s-70.043-156.444-156.444-156.444c-72.893 0-134.142 49.852-151.513 117.321l-83.154 0.012c-21.6 0-39.111 17.511-39.111 39.111 0 20.058 15.098 36.589 34.55 38.848l4.561 0.263 83.152 0.005c17.369 67.473 78.619 117.328 151.514 117.328zM316.444 839.111c-43.201 0-78.222-35.021-78.222-78.222s35.021-78.222 78.222-78.222c43.201 0 78.222 35.021 78.222 78.222s-35.021 78.222-78.222 78.222zM942.222 800c21.6 0 39.111-17.511 39.111-39.111 0-20.058-15.098-36.589-34.55-38.848l-4.561-0.263h-352c-21.6 0-39.111 17.511-39.111 39.111 0 20.058 15.098 36.589 34.55 38.848l4.561 0.263h352z" />
<glyph unicode="&#xe920;" glyph-name="small-arrow-down" data-tags="small-arrow-down" d="M316.331 618.667l195.67-195.671 195.669 195.671 60.331-60.331-256-256.001-256.001 256.001z" />
<glyph unicode="&#xe921;" glyph-name="small-arrow-left" data-tags="small-arrow-left" d="M657.664 252.329l-195.669 195.669 195.669 195.671-60.331 60.331-256-256.001 256-256z" />
<glyph unicode="&#xe922;" glyph-name="small-arrow-right" data-tags="small-arrow-right" d="M341.333 252.33l195.671 195.669-195.671 195.67 60.331 60.331 256.001-256.001-256.001-256z" />
<glyph unicode="&#xe923;" glyph-name="small-arrow-up" data-tags="small-arrow-up" d="M316.331 302.335l195.669 195.669 195.669-195.669 60.331 60.331-256 256.001-256-256.001z" />
<glyph unicode="&#xe924;" glyph-name="support" data-tags="support" d="M257.778 213.333c68.913 0 126.29-22.763 171.434-58.604 27.788-22.031 43.677-55.758 43.677-91.426v0-45.525c0-21.6-17.511-39.111-39.111-39.111v0h-352c-21.6 0-39.111 17.511-39.111 39.111v0 45.525c0 35.669 15.889 69.396 43.656 91.41 45.165 35.857 102.542 58.62 171.455 58.62zM766.222 213.333c68.913 0 126.29-22.763 171.434-58.604 27.788-22.031 43.677-55.758 43.677-91.426v0-45.525c0-21.6-17.511-39.111-39.111-39.111v0h-352c-21.6 0-39.111 17.511-39.111 39.111v0 45.525c0 35.669 15.889 69.396 43.656 91.41 45.165 35.857 102.542 58.62 171.455 58.62zM257.778 135.111c-49.962 0-90.7-16.162-122.838-41.677-8.843-7.011-14.051-18.065-14.051-30.131v0-6.414h273.778v6.414c0 10.343-3.826 19.941-10.501 26.898v0l-3.571 3.25c-32.118 25.499-72.856 41.661-122.817 41.661zM766.222 135.111c-49.962 0-90.7-16.162-122.838-41.677-8.843-7.011-14.051-18.065-14.051-30.131v0-6.414h273.778v6.414c0 10.343-3.826 19.941-10.501 26.898v0l-3.571 3.25c-32.118 25.499-72.856 41.661-122.817 41.661zM257.778 526.222c75.602 0 136.889-61.287 136.889-136.889s-61.287-136.889-136.889-136.889c-75.602 0-136.889 61.287-136.889 136.889s61.287 136.889 136.889 136.889zM766.222 526.222c75.602 0 136.889-61.287 136.889-136.889s-61.287-136.889-136.889-136.889c-75.602 0-136.889 61.287-136.889 136.889s61.287 136.889 136.889 136.889zM257.778 448c-32.401 0-58.667-26.266-58.667-58.667s26.266-58.667 58.667-58.667c32.401 0 58.667 26.266 58.667 58.667s-26.266 58.667-58.667 58.667zM766.222 448c-32.401 0-58.667-26.266-58.667-58.667s26.266-58.667 58.667-58.667c32.401 0 58.667 26.266 58.667 58.667s-26.266 58.667-58.667 58.667zM942.222 917.333c21.6 0 39.111-17.511 39.111-39.111v0-234.667c0-21.6-17.511-39.111-39.111-39.111v0h-260.128l-184.773-147.874c-24.445-19.556-60.12-3.832-63.313 26.161v0l-0.23 4.38v391.111c0 21.6 17.511 39.111 39.111 39.111v0zM903.111 839.111h-391.111v-270.61l132.012 105.595c5.548 4.438 12.172 7.26 19.147 8.212v0l5.286 0.359h234.667v156.444z" />
<glyph unicode="&#xe925;" glyph-name="trash" data-tags="trash" d="M823.106 604.408l4.568-0.062c20.007-1.429 35.42-17.666 36.289-37.229l-0.062-4.568-33.909-474.878c-4.21-59.139-51.749-105.459-110.243-108.809l-6.796-0.194h-401.906c-59.289 0-108.868 44.129-116.362 102.23l-0.676 6.764-33.909 474.887c-1.538 21.546 14.681 40.259 36.226 41.797 20.007 1.429 37.571-12.454 41.21-31.695l0.587-4.531 33.91-474.896c1.353-19.009 16.136-34.045 34.674-36.096l4.34-0.239h401.906c19.058 0 35.106 13.678 38.469 32.029l0.546 4.314 33.909 474.887c1.429 20.007 17.666 35.42 37.229 36.289zM81.778 682.667c-21.6 0-39.111 17.511-39.111 39.111 0 20.058 15.098 36.589 34.55 38.848l4.561 0.263 234.638 0.028 0.028 78.194c0 41.237 31.91 75.022 72.384 78.008l5.838 0.215h234.667c41.237 0 75.022-31.91 78.008-72.384l0.215-5.838-0.014-78.194 234.681-0.028c21.6 0 39.111-17.511 39.111-39.111 0-20.058-15.098-36.589-34.55-38.848l-4.561-0.263h-860.444zM629.333 839.111h-234.667v-78.194h234.667v78.194z" />
<glyph unicode="&#xe926;" glyph-name="verify" data-tags="verify" d="M760.889 874.667c18.234 0 33.262-13.726 35.316-31.409l0.239-4.147-0.022-202c22.479-33.795 35.578-74.368 35.578-118 0-36.845-9.34-71.508-25.783-101.751l122.035-121.996c13.885-13.885 13.885-36.398 0-50.283-12.817-12.817-32.985-13.803-46.934-2.958l-3.35 2.958-81.554 81.575 0.028-269.767c0-18.234-13.726-33.262-31.409-35.316l-4.147-0.239h-640c-18.234 0-33.262 13.726-35.316 31.409l-0.239 4.147v782.222c0 18.234 13.726 33.262 31.409 35.316l4.147 0.239h640zM725.333 803.556h-568.889v-711.111h568.889l0.055 241.906c-31.391-18.171-67.842-28.572-106.722-28.572-78.95 0-147.883 42.887-184.774 106.634l-170.781 0.032c-19.637 0-35.556 15.919-35.556 35.556 0 18.234 13.726 33.262 31.409 35.316l4.147 0.239 145.175-0.017c-1.942 11.568-2.953 23.453-2.953 35.573 0 24.934 4.277 48.868 12.139 71.11l-154.361 0.001c-19.637 0-35.556 15.919-35.556 35.556 0 18.234 13.726 33.262 31.409 35.316l4.147 0.239 196.545 0.002c39.063 43.643 95.829 71.109 159.010 71.109 38.88 0 75.331-10.401 106.722-28.572l-0.055 99.683zM618.667 305.778c19.637 0 35.556-15.919 35.556-35.556 0-18.234-13.726-33.262-31.409-35.316l-4.147-0.239h-355.556c-19.637 0-35.556 15.919-35.556 35.556 0 18.234 13.726 33.262 31.409 35.316l4.147 0.239h355.556zM618.667 661.333c-66.252 0-121.924-45.301-137.729-106.618l137.729-0.049c19.637 0 35.556-15.919 35.556-35.556 0-18.234-13.726-33.262-31.409-35.316l-4.147-0.239-137.74-0.007c15.79-61.338 71.472-106.66 137.74-106.66 78.547 0 142.222 63.675 142.222 142.222s-63.675 142.222-142.222 142.222z" />
<glyph unicode="&#xe940;" glyph-name="calculator" data-tags="calculator, compute, math, arithmetic, sum" d="M384 896h-320c-35.2 0-64-28.8-64-64v-320c0-35.2 28.796-64 64-64h320c35.2 0 64 28.8 64 64v320c0 35.2-28.8 64-64 64zM384 640h-320v64h320v-64zM896 896h-320c-35.204 0-64-28.8-64-64v-832c0-35.2 28.796-64 64-64h320c35.2 0 64 28.8 64 64v832c0 35.2-28.8 64-64 64zM896 320h-320v64h320v-64zM896 512h-320v64h320v-64zM384 384h-320c-35.2 0-64-28.8-64-64v-320c0-35.2 28.796-64 64-64h320c35.2 0 64 28.8 64 64v320c0 35.2-28.8 64-64 64zM384 128h-128v-128h-64v128h-128v64h128v128h64v-128h128v-64z" />
<glyph unicode="&#xe979;" glyph-name="hour-glass" data-tags="hour-glass, loading, busy, wait" d="M728.992 448c137.754 87.334 231.008 255.208 231.008 448 0 21.676-1.192 43.034-3.478 64h-889.042c-2.29-20.968-3.48-42.326-3.48-64 0-192.792 93.254-360.666 231.006-448-137.752-87.334-231.006-255.208-231.006-448 0-21.676 1.19-43.034 3.478-64h889.042c2.288 20.966 3.478 42.324 3.478 64 0.002 192.792-93.252 360.666-231.006 448zM160 0c0 186.912 80.162 345.414 224 397.708v100.586c-143.838 52.29-224 210.792-224 397.706v0h704c0-186.914-80.162-345.416-224-397.706v-100.586c143.838-52.294 224-210.796 224-397.708h-704zM619.626 290.406c-71.654 40.644-75.608 93.368-75.626 125.366v64.228c0 31.994 3.804 84.914 75.744 125.664 38.504 22.364 71.808 56.348 97.048 98.336h-409.582c25.266-42.032 58.612-76.042 97.166-98.406 71.654-40.644 75.606-93.366 75.626-125.366v-64.228c0-31.992-3.804-84.914-75.744-125.664-72.622-42.18-126.738-125.684-143.090-226.336h501.67c-16.364 100.708-70.53 184.248-143.212 226.406z" />
<glyph unicode="&#xe98d;" glyph-name="key" data-tags="key, password, login, signin" d="M704 960c-176.73 0-320-143.268-320-320 0-20.026 1.858-39.616 5.376-58.624l-389.376-389.376v-192c0-35.346 28.654-64 64-64h64v64h128v128h128v128h128l83.042 83.042c34.010-12.316 70.696-19.042 108.958-19.042 176.73 0 320 143.268 320 320s-143.27 320-320 320zM799.874 639.874c-53.020 0-96 42.98-96 96s42.98 96 96 96 96-42.98 96-96-42.98-96-96-96z" />
<glyph unicode="&#xe98f;" glyph-name="lock" data-tags="lock, secure, private, encrypted" d="M592 512h-16v192c0 105.87-86.13 192-192 192h-128c-105.87 0-192-86.13-192-192v-192h-16c-26.4 0-48-21.6-48-48v-480c0-26.4 21.6-48 48-48h544c26.4 0 48 21.6 48 48v480c0 26.4-21.6 48-48 48zM192 704c0 35.29 28.71 64 64 64h128c35.29 0 64-28.71 64-64v-192h-256v192z" />
<glyph unicode="&#xe990;" glyph-name="unlocked" data-tags="unlocked, lock-open" d="M768 896c105.87 0 192-86.13 192-192v-192h-128v192c0 35.29-28.71 64-64 64h-128c-35.29 0-64-28.71-64-64v-192h16c26.4 0 48-21.6 48-48v-480c0-26.4-21.6-48-48-48h-544c-26.4 0-48 21.6-48 48v480c0 26.4 21.6 48 48 48h400v192c0 105.87 86.13 192 192 192h128z" />
<glyph unicode="&#xe9c1;" glyph-name="cloud" data-tags="cloud, weather" d="M1024 302.458c0 82.090-56.678 150.9-132.996 169.48-3.242 128.7-108.458 232.062-237.862 232.062-75.792 0-143.266-35.494-186.854-90.732-24.442 31.598-62.69 51.96-105.708 51.96-73.81 0-133.642-59.874-133.642-133.722 0-6.436 0.48-12.76 1.364-18.954-11.222 2.024-22.766 3.138-34.57 3.138-106.998 0.002-193.732-86.786-193.732-193.842 0-107.062 86.734-193.848 193.73-193.848l656.262 0.012c96.138 0.184 174.008 78.212 174.008 174.446z" />
<glyph unicode="&#xe9c4;" glyph-name="cloud-check" data-tags="cloud-check, cloud, synced" d="M892.268 445.51c2.442 11.108 3.732 22.646 3.732 34.49 0 88.366-71.634 160-160 160-14.224 0-28.014-1.868-41.134-5.352-24.796 77.352-97.288 133.352-182.866 133.352-87.348 0-161.054-58.336-184.326-138.17-22.742 6.62-46.792 10.17-71.674 10.17-141.384 0-256-114.616-256-256 0-141.382 114.616-256 256-256h608c88.366 0 160 71.632 160 160 0 78.718-56.854 144.16-131.732 157.51zM416 192l-160 160 64 64 96-96 224 224 64-64-288-288z" />
<glyph unicode="&#xe9ca;" glyph-name="earth" data-tags="earth, globe, language, web, internet, sphere, planet" d="M512 960c-282.77 0-512-229.23-512-512s229.23-512 512-512 512 229.23 512 512-229.23 512-512 512zM512-0.002c-62.958 0-122.872 13.012-177.23 36.452l233.148 262.29c5.206 5.858 8.082 13.422 8.082 21.26v96c0 17.674-14.326 32-32 32-112.99 0-232.204 117.462-233.374 118.626-6 6.002-14.14 9.374-22.626 9.374h-128c-17.672 0-32-14.328-32-32v-192c0-12.122 6.848-23.202 17.69-28.622l110.31-55.156v-187.886c-116.052 80.956-192 215.432-192 367.664 0 68.714 15.49 133.806 43.138 192h116.862c8.488 0 16.626 3.372 22.628 9.372l128 128c6 6.002 9.372 14.14 9.372 22.628v77.412c40.562 12.074 83.518 18.588 128 18.588 70.406 0 137.004-16.26 196.282-45.2-4.144-3.502-8.176-7.164-12.046-11.036-36.266-36.264-56.236-84.478-56.236-135.764s19.97-99.5 56.236-135.764c36.434-36.432 85.218-56.264 135.634-56.26 3.166 0 6.342 0.080 9.518 0.236 13.814-51.802 38.752-186.656-8.404-372.334-0.444-1.744-0.696-3.488-0.842-5.224-81.324-83.080-194.7-134.656-320.142-134.656z" />
<glyph unicode="&#xea00;" glyph-name="frustrated2" data-tags="frustrated, emoticon, smiley, face, angry" d="M256 304v-96c0-8.674 7.328-16 16-16h112v128h-112c-8.672 0-16-7.326-16-16zM448 320h128v-128h-128v128zM752 320h-112v-128h112c8.674 0 16 7.326 16 16v96c0 8.674-7.326 16-16 16zM512 960c-282.77 0-512-229.23-512-512s229.23-512 512-512 512 229.23 512 512-229.23 512-512 512zM576.096 579.484c2.034 47.454 45.212 78.946 81.592 97.138 34.742 17.37 69.102 26.060 70.548 26.422 17.146 4.288 34.518-6.138 38.806-23.284 4.284-17.144-6.14-34.518-23.284-38.804-17.624-4.45-38.522-12.12-56.936-21.35 10.648-11.43 17.174-26.752 17.174-43.606 0-35.346-28.654-64-64-64s-64 28.654-64 64c0.002 1.17 0.040 2.33 0.1 3.484zM256.958 679.76c4.288 17.146 21.66 27.572 38.806 23.284 1.446-0.362 35.806-9.052 70.548-26.422 36.38-18.192 79.56-49.684 81.592-97.138 0.062-1.154 0.098-2.314 0.098-3.484 0-35.346-28.654-64-64-64s-64 28.654-64 64c0 16.854 6.526 32.176 17.174 43.606-18.414 9.23-39.31 16.9-56.936 21.35-17.142 4.286-27.566 21.66-23.282 38.804zM832 208c0-44.112-35.888-80-80-80h-480c-44.112 0-80 35.888-80 80v96c0 44.112 35.888 80 80 80h480c44.112 0 80-35.888 80-80v-96z" />
<glyph unicode="&#xea13;" glyph-name="enter" data-tags="enter, signin, login" d="M384 448h-320v128h320v128l192-192-192-192zM1024 960v-832l-384-192v192h-384v256h64v-192h320v576l256 128h-576v-256h-64v320z" />
<glyph unicode="&#xea58;" glyph-name="make-group" data-tags="make-group" d="M320 832h-128c-35.2 0-64-28.8-64-64v-128c0-35.2 28.8-64 64-64h128c35.2 0 64 28.8 64 64v128c0 35.2-28.8 64-64 64zM704 576h128c35.2 0 64 28.8 64 64v128c0 35.2-28.8 64-64 64h-128c-35.2 0-64-28.8-64-64v-128c0-35.2 28.8-64 64-64zM704 768h128v-128h-128v128zM320 320h-128c-35.2 0-64-28.8-64-64v-128c0-35.2 28.8-64 64-64h128c35.2 0 64 28.8 64 64v128c0 35.2-28.8 64-64 64zM320 128h-128v128h128v-128zM832 320h-128c-35.2 0-64-28.8-64-64v-128c0-35.2 28.8-64 64-64h128c35.2 0 64 28.8 64 64v128c0 35.2-28.8 64-64 64zM896 448h-64c-85.476 0-165.834 33.286-226.274 93.724-60.44 60.442-93.726 140.802-93.726 226.276v64c0 70.4-57.6 128-128 128h-256c-70.4 0-128-57.6-128-128v-256c0-70.4 57.6-128 128-128h64c85.476 0 165.834-33.286 226.274-93.724 60.44-60.442 93.726-140.802 93.726-226.276v-64c0-70.4 57.6-128 128-128h256c70.4 0 128 57.6 128 128v256c0 70.4-57.6 128-128 128zM960 64c0-16.954-6.696-32.986-18.856-45.144-12.158-12.16-28.19-18.856-45.144-18.856h-256c-16.954 0-32.986 6.696-45.144 18.856-12.16 12.158-18.856 28.19-18.856 45.144v64c0 212.078-171.922 384-384 384h-64c-16.954 0-32.986 6.696-45.146 18.854-12.158 12.16-18.854 28.192-18.854 45.146v256c0 16.954 6.696 32.986 18.854 45.146 12.16 12.158 28.192 18.854 45.146 18.854h256c16.954 0 32.986-6.696 45.146-18.854 12.158-12.16 18.854-28.192 18.854-45.146v-64c0-212.078 171.922-384 384-384h64c16.954 0 32.986-6.696 45.144-18.856 12.16-12.158 18.856-28.19 18.856-45.144v-256z" />
<glyph unicode="&#xea72;" glyph-name="insert-template" data-tags="insert-template, wysiwyg" d="M384 768h128v-64h-128zM576 768h128v-64h-128zM896 768v-256h-192v64h128v128h-64v64zM320 576h128v-64h-128zM512 576h128v-64h-128zM192 704v-128h64v-64h-128v256h192v-64zM384 384h128v-64h-128zM576 384h128v-64h-128zM896 384v-256h-192v64h128v128h-64v64zM320 192h128v-64h-128zM512 192h128v-64h-128zM192 320v-128h64v-64h-128v256h192v-64zM960 896h-896v-896h896v896zM1024 960v0-1024h-1024v1024h1024z" />
</font>
</defs>
</svg>
